Saturday, 23 December 2017

RE-UPLOAD: The Sisters Of Mercy - Brielpoort, Deinze, Belgium - 01.06.1984 (Flac)



Excellent audience.

Original TXT file:

Received this Recording as a Silver CDR from M12Dimes. Thanks Koen!!!

SOURCE: CDR - CDex (to rip the wav files to PC) - FLAC (level 8) - you

Tracks:

01. Burn
02. Heartland
03. Body And Soul
04. Anaconda
05. Walk Away
06. Emma
07. Floorshow
08. Adrenochrome
09. Alice
10. Body Electric
11. Sister Ray


RE-UPLOAD: The Cure - Leeds Festival, Leeds, UK - 25.08.2012 (Flac)



Very good sound. Thanks to the original uploader.

Sony PCM-M10 / Awia CM-30 Microphone - recorded at 48khz  / 24 bit - tracks split - no split for CD just like the original concert

Setlist:

01 Tape/Open
02 High
03 The End of the World
04 Lovesong
05 Sleep When I'm Dead
06 Push
07 Inbetween Days
08 Just Like Heaven
09 Pictures of You
10 Lullaby
11 The Caterpillar
12 The Walk
13 Friday I'm in Love
14 Doing the Unstuck
15 Trust
16 From the Edge of the Deep Green Sea
17 Play For Today
18 A Forest
19 Bananafishbones
20 Primary
21 Want
22 The Hungry Ghost
23 Wrong Number
24 One Hundred Years
25 End
26 Dressing Up
27 The Lovecats
28 Close To Me
29 Just One Kiss
30 Let's Go To Bed
31 Why Can't I Be You?
32 Boys Don't Cry



Nick Cave and The Bad Seeds - Pavilhão Carlos Lopes, Lisbon, Portugal - 16.12.1988 (Flac)




One of my fondest memories :) HUGE Thanks to everubody involved in making this recording avaiable.


Original Info:

29th Anniversary release!!


Tender Prey tour, 1st leg - Europe
The band was playing for the first time in Portugal.

taper: Ana
source: mini tape recorder (Sony?) > Sony UX-S90 cassette
transfer: master tape > Arrela Portable Cassette player > USB > PC (Audacity) > wav
general mastering (ZH) - removed static discharge clicks appeared during digitizing process / reduce tape and player noise (DeNoise app); patch between tracks 3-4.
editing, cleaning, retracking (inez) - iZotope Rx > Audacity > flac 16/44.1


Editor notes:
I am uber happy to be able to get out this historic document of the first Nick show in Portugal on the 29th anniversary of the gig. This was recorded by my friend Ana who I e-met in one of Nick facebook fan groups - and she mentioned this - her FIRST EVER tape. OK, has everyone pictured a 20-year old girl with a tape recorder at a Nick Cave show in 1988? Exactly. I donÕt think there were many! Anyways - she kindly transferred the tape (actually, I think her son did!) last year in response to my nagging :-) and sent me the wav. Also included are photos of the tape and some photos she took at the show.

There were two stumbles: something went wrong with the tape recorder at the end of From Her To Eternity - beginning of Your Funeral My Trial. By some CRAZY twist of fate, I acquired ANOTHER - lossy and Ôlineage-freeÕ recording of the show - and my friend ZH kindly and seamlessly patched the gap using that other tape. The other stumble is the unavoidable flip tape - it happens to be in the middle of KnockinÕ On Joe - canÕt patch that one since those other folks were flipping their tape at the same time Lol

With respect to the quality, from my description, you can gather this is not your Ôrefined listening experienceÕ - you kinda feel like you are in the midst of it all. ItÕs pretty mad :) Some guy whistles a lot (and I removed quite a bit of his whistling), there are screams and cheers and occasional sing/scream-alongs (removed some of those too!) and itÕs loud and unruly :) I am happy Ana transferred the tape because I think it may begin to deteriorate soon. But this is an amazing relic - so Nick collectors are probably going to be quite happy to have this!
Enjoy - happy anniversary! 


setlist

01 intro
02 I'm Gonna Kill That Woman (John Lee Hooker cover)
03 From Her to Eternity *
04 Your Funeral... My Trial *
05 Deanna
06 Long Time Man (Tim Rose cover) - some audience exchanges after the song Lol
07 Jack's Shadow
08 Mercy
09 The Mercy Seat
10 Knockin' on Joe - tape-flip in the middle
11 City of Refuge
12 The  Singer (Johnny Cash cover)
13 By the Time I Get to Phoenix (Jimmy Webb cover)
14 Sugar Sugar Sugar
15 Black Betty
16 New Morning > tuning
17 Saint Huck

* - 2 min filled from a lossy source of unclear lineage

total time 1 h 25 min 15 sec

Line up: Nick Cave, Mick Harvey, Blixa Bargeld, Thomas Wydler, Kid Congo Powers and Roland Wolf.

**Please support the artists!! Buy their official releases and go see them live**
**Please do not share in lossy formats and never sell!!**

The Story Of The Pogues "Fairytale of New York" (Documentary)







Very good documentary, with the usual excelence of BBC. Perfect for Xmas.

Format                                   : Matroska
Format version                           : Version 4 / Version 2
File size                                : 1.36 GiB
Duration                                 : 56 min 8 s
Overall bit rate                         : 3 475 kb/s
Movie name                               : The Story of Fairytale of New York [MVGroup]
Encoded date                             : UTC 2017-12-21 12:39:22
Writing application                      : mkvmerge v19.0.0 ('Brave Captain') 64-bit
Writing library                          : libebml v1.3.5 + libmatroska v1.4.8

Video
ID                                       : 1
Format                                   : AVC
Format/Info                              : Advanced Video Codec
Format profile                           : High@L3.1
Format settings                          : CABAC / 4 Ref Frames
Format settings, CABAC                   : Yes
Format settings, RefFrames               : 4 frames
Codec ID                                 : V_MPEG4/ISO/AVC
Duration                                 : 56 min 8 s
Bit rate                                 : 3 347 kb/s
Width                                    : 1 280 pixels
Height                                   : 720 pixels
Display aspect ratio                     : 16:9
Frame rate mode                          : Constant
Frame rate                               : 25.000 FPS
Color space                              : YUV
Chroma subsampling                       : 4:2:0
Bit depth                                : 8 bits
Scan type                                : Progressive
Bits/(Pixel*Frame)                       : 0.145
Stream size                              : 1.31 GiB (96%)
Language                                 : English
Default                                  : Yes
Forced                                   : No
Color range                              : Limited
Color primaries                          : BT.709
Transfer characteristics                 : BT.709
Matrix coefficients                      : BT.709

Audio
ID                                       : 2
Format                                   : AAC
Format/Info                              : Advanced Audio Codec
Format profile                           : LC
Codec ID                                 : A_AAC-2
Duration                                 : 56 min 8 s
Bit rate                                 : 126 kb/s
Channel(s)                               : 2 channels
Channel positions                        : Front: L R
Sampling rate                            : 48.0 kHz
Frame rate                               : 46.875 FPS (1024 SPF)
Compression mode                         : Lossy
Delay relative to video                  : 9 ms
Stream size                              : 50.6 MiB (4%)
Language                                 : English
Default                                  : Yes
Forced                                   : No

Text
ID                                       : 3
Format                                   : UTF-8
Codec ID                                 : S_TEXT/UTF8
Codec ID/Info                            : UTF-8 Plain Text
Duration                                 : 55 min 45 s
Bit rate                                 : 102 b/s
Count of elements                        : 745
Stream size                              : 41.7 KiB (0%)
Language                                 : English
Default                                  : No
Forced                                   : No

The Clash - The Lyceum, London, UK - 28.12.1978 (Flac)



Excelent soundboard recording.

 Original Info File:

TITLE: Flash Bastards Remastered
SOURCE: SBD
QUALITY: A/A+
ARTWORK: Included (taken from original torrent, slightly altered)

TRACKLISTING:
01. Safe European Home
02. I Fought the Law
03. Jail Guitar Door
04. Drug Stabbing Time
05. City Of the Dead
06. Clash City Rockers
07. Tommy Gun
08. White Man In Hammersmith Palais
09. English Civil War
10. Stay Free
11. Cheapskates
12. Julie's In the Drug Squad
13. Police and Thieves
14. Capital Radio
15. Janie Jones
16. Garageland
17. Complete Control
18. London's Burning
19. White Riot

TOTAL RUNTIME: 1hr 6mins 1sec

LINEAGE: Pro SBD > ? analog > CD-R > xAct (flac)>WAV>Cool Edit Pro v1.2>FLAC 6
-----------------------------------------------------------------------------------------------------------------------------------------------------------------------------------------

TRANSFER/EDITING NOTES:
I'd like to begin by thanking j-blokhed for this recording. Here is an amazing Clash show from late '78. This was a great period for the band who are in fine form and are complemented here by an excellent soundboard source. I decided to remaster this recording since I liked the performance so much and wanted to hear it in as high quality as possible. For the remastering, I applied virtually the same edits to all tracks. A couple of tracks were slightly different in frequency response and were adjusted accordingly. There were also a couple of drop-outs which I corrected as good as possible. No noise reduction of any kind has been used here. A low amount of hiss is present after equalizing but not enough to be a distraction or even heard at most levels. The equalization used is light in general as the recording only needed a cut in a few resonating frequencies and a slight boost in some higher frequencies. I hope you like what I've done and consider this an improvement over the original source. Enjoy!


upped by: theface07
http://www50.brinkster.com/theface07/

Big thanks to j-blokhed for the source of this recording!

**** ORIGINAL TORRENT INFO ****

THE CLASH - 28 December, 1978
The Lyceum, London

Here's another SBD - and one of my favorites. The Clash played three shows around New Year's 1979 that were recorded for possible use in the film Rude Boy. The dates were Dec 28-89, 1978, and Jan 3, 1979.

The first of these shows to fall into collector's hands was a very good audience recording released first on LP, and then on CD, as "Sort It Out". This is NOT that show. The exact dates of these recordings has been in question, but I believe that "Sort It Out" (also released as "USA 1979" [sic] as well as other, later, titles) is in fact Jan 3, 1979. I think that this recording is Dec 28, 1978.

This tape fell into my hands indirectly from an inside source (KV), and was probably 2nd-3rd gen when recorded to CD-R. It has since spread throughout collector's circles, and the artwork included here is strictly homemade "fan club".

This is one of the very best - enjoy!

Tears for Fears - Convention Center, Dallas, Texas, USA - 14.09.1985 (Flac)




Original Info File:

"superstars in concert" Westwood One FM broadcast
(the Hooters were also included in this broadcast
from the Tower Theater in Pa. not in here,
all of the Tears for Fears part is included here)
runtime: 34:28 (minutes/ seconds)

    setlist:
1: mother's talk 4:06 
2: broken > 2:32
3: head over heels 4:48
4: breakdown 6:30
5: the prisoner 2:37
6: shout 5:37
7: everybody wants to rule the world 4:22  
8: the hurting 3:54  


Band:
Roland Orzabal: guitar, vocals
Curt Smith: bass, vocals
Ian Stanley: keyboards, backing Vocals
Manny Elias: drums
William Gregory: sax
Nicky Holland: keyboards, backing Vocals
Andy Sanders: guitar, backing vocals

lineage:
FM broadcast >
Yamaha RX 500U reciever with digital tuner and wire antenna > unknown cassette recorder (dolby off) > Maxell XLII-S 90 min. cassette > played on tascam 112 into soundforge (wav) > flac (sb's aligned) > torrentially yours.

do not sell this recording.
share freely, losslessly and gaplessly.

Specimen - Fenders Ballroom, Long Beach, CA, USA - 22.06.1985 (Flac)


Very good audience. Thanks to the original uploader.


Original Info File:

audience - unknown generation and equipment
Received in a trade a long time ago.

Maxell XLII-90 > Denon DRW-850 > wavelab 6 > TLH > make torrent 2 > dime
Azimuth calibrated and SBE corrected.

setlist
01-Hex
02-Wicked Wicked Girl
03-Lovers
04-I've Got A Wet, Warm, Cream Filled, Red Velvet Crush On You
05-Stand Up, Stand Out
06-Sharp Teeth, Pretty Teeth
07-?  ?  ?   ?

Bonus as it was on the end of the Fenders show on the cassette I was sent)
08-Surfin U.S.A. (Albany, NY 1986)

Please DO NOT SELL or redistribute in lossy formats.

Eyeless in Gaza - Vera, Groningen, The Netherlands - 18.11.1982 (Flac)



Excellent FM broadcast.Thanks to the original uploader.

Recorded and broadcasted by VPRO Radio.

Line up :
Martyn Bates - vocals, guitar, keyboards
Peter Becker - keyboards, electronics, guitar, percussion

Lineage : FM > cassette > Audacity > CD Wave Editor > FLAC 8

Setlist : 
01 Bright Play Of Eyes
02
03
04
05
06
07
08
09

Originally uploaded by FredHeadset. Thanks to original uploader

Enjoy

RE-UPLOAD: Diamanda Galás - Royal Festival Hall, London, UK - 01.08.2012 (Flac)



Excellent sound. Thanks to stubba for sharing this recording on DIME.

Diamanda Galás - The Hour Will Come

Royal Festival Hall
London
UK

1 August 2012

Setlist:

Verra la Morte e avra i tuoi occhi
I gatti lo sapranno
Tengo que subir al puerto
Mann und Frau gehn durch die Krebsbaracke
En Apognisei
O Death
Fernand
A la sierra de Armenia
Die Stunde Kommt
Amsterdam

Encore:
Anoixe Petra


Recorded by Phil Mackie: Zoom H2 digital recorder with internal microphone WAV 48kHz/24 bit.

Tracked and seeded by stubba: Audacity 1.3 Beta > Trader's Little Helper (Flac 24-bit, 48khz)

http://diamandagalas.com/


RE-UPLOAD: David Sylvian and Robert Fripp - Massey Hall, Toronto, Canada - 01.11.1993 (Flac)




Another of the artists that wasn't choosen to be the focus of the week, as promised here is at least one recording of each one of them.

Original Info file:

FM Recording, Sound 10/10


Artwork Included.

Known Lineage:
CDR - Wavelab (Tracking) - WAV Files - FLAC Level 8


1. Introduction and interview with David Sylvian
2. Jean The Birdman
3. Firepower
4. David Sylvian Interview 2
5. Damage
6. Station Call
7. Exposure
8. Gone To Earth
9. 20th Century Dreaming
10. Wave
11. David Sylvian Interview 3
12. The First Day
13. Station Call 2
14. Blinding Light Of Heaven
15. Band Introduction
16. Closing


Thursday, 7 December 2017

RE-UPLOAD: The Sisters Of Mercy - Victims Of Circumstance - CD Version (Flac)



This is the recent australian CD bootleg,not the 7'' single or the tape that share the same name.

The sound it's probably the best you'll get for these demos and the version of "Knocking on Heaven's Door" is not faded like in the "Sins and Secrets" bootleg, don't know if that's because of the source or some audio editing by the bootleggers.

Thanks to sleepchamber for sharing this version here.


Tracklist:

01. Ghostrider (Live In Amsterdam 1984)
02. Red Skies Disapper (FALAA music, G. Marx vocals)
03. Dance On Glass (Black Planet musicW. Hussey vocals)
04. A Rock And A Hard Place (Disco Mix)
05. Garden Of Delight (W. Hussey vocals)
06. Garden Of Delight (A. Eldritch vocals)
07. Knocking On Heaven's Door (Studio Demo)
08. Serpents Kiss (Instrumental Demo)
09. Emma (Unfinished Studio Demo)

Australia

The Creatures - On Top Of The Pops (DVD)






Thanks to the anonimous collaborator for sending me these videos to share here.

Tracklist.

01. Mad Eyed Screamer
02. Miss The Girl (1st Appearance)
03. Miss The Girl (2nd Appearance)
04. Right Now

Do Not Sell.
Enjoy

The The - Barrowlands, Glasgow, Scotland - 26.09.1989 (Flac)



Very good sound. Thanks to the original uploader.

Radio Clyde FM Broadcast (Excellent Sound Quality!)

Thanks to DIME user lepep (Hi Leif!) for sending me the disc!

Lineage: FM Master > Cassette > Minidisc > CDR recorder (Pioneer standalone)
(CDR ripped with EAC converted to FLAC with TLH)



01. Sweet Bird of Truth
02. Armageddon Days Are Here (Again)
03. The Sinking Feeling
04. The Beat(en) Generation
05. Heartland
06. Infected
07. This Is The Day
08. Good Morning Beautiful
09. Uncertain Smile
10. GIANT (small repeating section at 3:49-4:09, from tape flip/change?)


(speed/pitch correction: +3.2%)


Listen to the incredibly enthusiastic Glaswegian audience who join in and
seem to know the lyrics to every song: really inspriring Matt & the band!

RE-UPLOAD: The Cramps - The Most Exhalted Potentates Of Trash (Bootleg) (Flac)

.
Classic vinyl bootleg with some unreleased track, recorded live in Detroit around 1984. In FLAC. Thanks to the original uploader.

Source: master tape>Tape desk JVC>Easymedia creator 6>Wave>declicked & decrakled>master equalizing from -0,5db to -1db>Sbe fixed>TLH encoded Flac7>TLH ffp & md5 checksum created.

 Tracklist:
01. Devil with a Blue Dress On
02. You'll Never Change Me
03. Sinners
04. Big and Fat
05. Zombie Dance
06. What's Inside a Girl
07. A Walk On Broadway
08. Tear it Up


Cigarettes After Sex - Mexefest, Coliseu, Lisboa, Portugal - 25.11.2017 (Flac)



Very good surprise, the concert was broadcasted on the radio, I knew about it 5 minutes before it started and managed to record it, only missing the first minute or so.

Lineage: Vodafone FM -> Roland R-05 -> Audacity -> TLH -> Flac (level 8)

Setlist:

01. Young And Dumb (Cuts in)
02. John Wayne
03. K.
04. Keep on loving you
05. Sweet
06. Opera House
07. Affection
08. Each Time You Fall In Love
09. Nothing's Gonna Hurt You Baby
10. Dreaming Of You
11. Apocalypse

Total Time: 55m 10s

Do Not Sell!
Enjoy.

Childhood - Mexefest, Estação Ferroviária do Rossio, Lisboa, Portugal - 25.11.2017 (Flac)


Didn't knew this band, but left the recorder taping after the Cigarettes After Sex concert. Nice surprise, cool indie sounding.

Lineage: Vodafone FM -> Roland R-05 -> Audacity -> TLH -> Flac (level 8)

Setlist:

01. Blue Velvet
02. Universal High
03. Melody Says
04. Don't Have Me Back
05. Nothing Ever Seems Right
06. Understanding
07. Solemn Skies

Total Time: 27m 59s

Do Not Sell!
Enjoy.

Rapeman / Dinosaur Jr - Olivers, Chester, UK - 12.10.1988 (Flac)




Very good soundboard recordings. Thanks to Noem for sharing on Dime.


Original Info Files:

Unknown Tape - TDK SA90 - TEAC V-337 tape deck - Adobe Audition 1.5 - TLR - you

Where I got this tape I can't really remember, possibly from a casual acquaintence at the time, just a kid really but someone who got me into Big Black, Butthole Surfers, The Shop Assistants and the 13th Floor Elevators. I suspect he lent me his C90 and I made what might be a 1st generation copy which is what I have digitised now. Anyway, this is a very good soundboard recording and so far as I
can tell not taken from the video of the gig which is currently on YouTube. Before the gig, there was a minute or so of chat from a local radio show (probably a Liverpool station) between a couple of chaps who had been to the show and describe the ceiling bending beneath the first floor room
where the bands played. Support was provided by Dinosaur Jr and Band of Susans. So far as I can tell, this has never been officially made available - any further information on the set list or other detail gratefully received.


Dinosaur Jr Setlist:

01 Tuning
02 In A Jar
03 The Lung / Let It Ride
04 No Bones
05 Freak Scene
06 Freak Scene, part 2
07 Audience and tape
08 SludgeFeast
09 Audience
10
11 Audience

Rapeman Setlist:

01. Radio Excerpt
02. Coition Ignition Mission
03. Dutch Courage
04. Log Bass
05. Marmoset
06. Hated Chinee
07. Steak and Black Onions
08. Monobrow
09. Wheelchair Epidemic
10. Just Got Paid
11. Trouser Minnow

Share & Enjoy

Norm.


Amorphis - Batschkapp, Frankfurt, Germany - 31.08.2017 (Flac)



Thanks to Chris for sending me his recording to share here.

Taper: C.F. (Chris)
Gear: Sony ICD-SX850

Lineage: Wav -> Audacity -> TLH -> Flac (Level 8)

Setlist:

01. Intro
02. Under the Red Cloud
03. Sacrifice
04. Sampo
05. Silver Bride
06. Hopeless Days
07. Bad Blood
08. The Smoke
09. Into Hiding
10. Drowned Maid
11. My Kantele
12. The Four Wise Ones
13. (Encore Break)
14. Death of a King
15. House of Sleep
16. Black Winter Day

Do Not Sell!
Enjoy.

RE-UPLOAD: Rubella Ballet - Duchess Of York, Leeds, UK - 06.09.1988 (Flac)



Thanks to Egg_Crisis for another rarity.

Cassette(aud,master,TDK D90,recorded on Saisho PS 35R with built-in mic) > wav > Soundforge > CDWave > split on sector boundaries > flac(6)

Tape flip between track 12 & 13.
The intro includes the sound of a slowed down voice.  I've also included a speeded up version to try and hear what the voice is saying...  it sounds like it's in German.



01 Intro
02 Batman
03 Artic Flowers
04 Plastic Life
05 It'll Never Happen To Me
06 42f
07 Dreamer
08 False Promises
09 Death Train
10 Turn On Tune In
11 Money Talks
12 Love Life
13 Emotional Blackmail
14 Slant & Slide
15 Let Us Out
16 Ballet Dance

Length - 67:07

Uploaded by Egg_Crisis for Dark Circle Room
Convert to mp3 for personal use only. Do not circulate in FLAC or WAV format without this info file.


RE-UPLOAD: Bella Morte - The Outback Lodge, Charlottesville, USA - 17.10.2004 (MP3)



Thanks to Kronfeld for sharing this one here.

Great sound, either a soundboard or fantastic audience. . Show cuts in about a minute into All I Have. Lots of chatter with the crowd. Oddities include a cover of Lynyrd Skynyrd's Simple Man and a very brief cover of New Kids on the Block.



Tracklist:

01. All I have
02. Echoes Announce
03. Echoes
04. Off The Quiet
05.Logic
06. Chris Knight
07. Where Shadows Lie
08., Baise Moi
09. I For An I
10. Keys And Monsters
11. Last days
12. Hangin' Tough
13. Simple Man
14. No Practice
15. Christina
16. Video Back
17. Another Way
18. A World That's Dying
19. A Dying World
20. Miss Lauren
21. The Coffin Don't Want Me
22. What We Ate Playing
23. The Fallen
24. Anewlow
25. Earth Angel
26. Port Compromised
27. Terminal Ready
28. Songs For The Dead
29. The Forgotten
30. Thanks To Everyone
31. The Devil's Eyes
32. Thanks To The Outback
33. The Dead


Sunday, 26 November 2017

RE-UPLOAD: The Sisters of Mercy - Kulturmejeriet, Lund, Sweden - 19.11.2011 (MP3)




Another great recording of the XXX tour. Thanks to Eggi for sharing this one over at HL. The excellent cover was made by reverend.

Taping position: 1st gallery (1st row middle) 8 meters from the stage
SP-CMC-8(Cards/SP-ATMIC-MODIF) -> SP-SPSB-11(no roll off) ->Edirol R09-HR( 24 bit/48 khz)->Audacity(only normalization)->cd wave(splitting)->MP3(320 kb/s)



Setlist:
01 Intro
02 Crash and Burn
03 Ribbons
04 First & Last & Always
05 Train - Detonation Boulevard
06 Alice
07 Marian
08 Arms
09 Dominion - Mother Russia
10 Summer
11 On the Wire - Teachers - On the Wire
12 Suzanne
13 Logic
14 No Time To Cry
15 This Corrosion
16 Pipeline
17 Flood II

Encore 1:
18 Rain From Heaven
19 More

Encore 2:
20 Lucretia
21 Vision Thing
22 Temple Of Love


Note: for personal use only / not for trade, sale or other abuse

Bauhaus - The Roxy, West Hollywood, USA - 12.12.1982 (Flac)


Very good sound. Thanks to the original uploader on Dime.

Cassette Master -> Untracked Aiff File -> Soundforge -> FLAC

Setlist:
01. -intro-
02. Bela Lugosi's Dead
03. Third Uncle
04. Silent Hedges
05. In Fear Of Fear
06. Of Lillies And Remains
07. Terror Couple Kill Colonel
08. She's In Parties
09. Passion Of Lovers
10. Antonin Artaud
11. The Three Shadows, Part II
12. Hair Of The Dog
13. Kick In The Eye
14. Hollow Hills
15. In The Night


RE-UPLOAD: The Cult (with Wayne Hussey) - Roskilde Festival, Denmark - 05.07.1987 (Flac)



Good sound and a stellar performance, Billy's on fire as usual. The encores feature Wayne Hussey on guitar. Thanks to tomyoungster for sharing the recording on DIME
.
Audience recording
Sony TC-D5M + Sony ECM-929LT
Cassette (1. gen) - Audacity - xACT

01 intro
02 She Sells Sanctuary
03 Wild Flower
04 Peace Dog
05 Rain
06 Big Neon Glitter
07 Nirvana
08 Lil Devil
09 Kings Contrary Man
10 Horse Nation
11 Phoenix (tape flip)
12 Love Removal Machine
13 Born to Be Wild -encore 1-
14 Wild Thing / Louie Louie -encore 2-

min  67:56

Support the artists by buying their records.

Orange Scene

Front Line Assembly / Revolting Cocks - Summit Music Hall, Denver, CO, USA - 16.11.2017 (Flac)



Thanks to the original uploader on TTD.

SOURCE: Countryman b3 > Church Audio 9V BB > Sony M10 (@24/48)

Frnt Line Assembly
SETLIST:

1. Resist
2. Killing Grounds
3. Neologic Spasm
4. Blood
5. Plasticity
6. Remorse
7. Prophecy
8. Iceolate
9. Mindphaser

Revolting Cocks
SETLIST:

1. Intro

[BigSexyLand]

2. 38
3. We Shall Cleanse the World
4. Attack Ships on Fire
5. Union Carbide
6. T. V. Mind
7. No Devotion
8. You Often Forget

[/BigSexyLand]

9. Cattle Grind
10. Physical (Original Version)
11. Stainless Steel Providers
12. Crackin' Up
13. Something Wonderful
14. Beers, Steers, and Queers

ENCORE:

15. Band Intro
16. Da Ta Think I'm Sexy


NOTES:

BigSexyLand 31st Anniversary Tour. Track 2-8: Richard 23, lead vocals. Track 9-14: Chris Connelly, lead vocals. Track 15: Richard 23/Chris Connelly vocals.

Revolting Cocks are:

Richard 23
Paul Barker
Chris Connelly
Jason Novak
Dan Brill

### Feel free to share, remaster, remix, sample, reverse it and check for Satanic messages, or whatever else you want to do with this recording...just don't sell it. Also, please don't do "re-masters" ...you really need the actual master otherwise it's just mastered again. Thanks and enjoy. ###


Various Artsts - Werchter Festival, Belgium- 05.07.1987 (MPG)









Thanks to the anonimous collaborator for sending me this one to share here.



Part 1
Julian Cope - Interview and live clips
The Triffids - Interview and live clips
The Housemartins - Interview and live clips
Iggy Pop - Interview and live clips
Echo & The Bunnymen - Interview and live clips
Promoter of the festival Interview
The Pretenders - Interview and live clips
Eurythmics - Interview and live clips
Peter Gabriel - Interview and live clips

Part2
Echo & The Bunnymen - Interview and Live Clips

Total Time: 42m14s

Overall bit rate mode                    : Constant
Overall bit rate                         : 4 299 kb/s
Writing library                          : ArcSoft MPEG-2 NTSC

Video
ID                                       : 224 (0xE0)
Format                                   : MPEG Video
Format version                           : Version 2
Format profile                           : Main@Main
Format settings                          : CustomMatrix / BVOP
Format settings, BVOP                    : Yes
Format settings, Matrix                  : Custom
Format settings, GOP                     : M=3, N=15
Duration                                 : 34 min 15 s
Bit rate mode                            : Constant
Bit rate                                 : 4 096 kb/s
Width                                    : 640 pixels
Height                                   : 480 pixels
Display aspect ratio                     : 4:3
Frame rate                               : 29.970 (30000/1001) FPS
Standard                                 : NTSC
Color space                              : YUV
Chroma subsampling                       : 4:2:0
Bit depth                                : 8 bits
Scan type                                : Progressive
Compression mode                         : Lossy
Bits/(Pixel*Frame)                       : 0.445
Time code of first frame                 : 00:00:00:00
Time code source                         : Group of pictures header
GOP, Open/Closed                         : Open
Stream size                              : 1 001 MiB (95%)
Writing library                          : ArcSoft MPEG-2 NTSC
Color primaries                          : BT.470 System M
Transfer characteristics                 : BT.470 System M
Matrix coefficients                      : BT.470 System B, BT.470 System G

Audio
ID                                       : 192 (0xC0)
Format                                   : MPEG Audio
Format version                           : Version 1
Format profile                           : Layer 2
Duration                                 : 34 min 15 s
Bit rate mode                            : Constant
Bit rate                                 : 128 kb/s
Channel(s)                               : 2 channels
Sampling rate                            : 44.1 kHz
Compression mode                         : Lossy
Stream size                              : 31.4 MiB (3%)

Skeletal Family - Clouds, Preston, UK - 08.04.1985 (Flac)



Thanks to the original uploader on Dime.

Original Info File:

Unknown Gen Cassette > Nakamichi CR-2 Stereo
Cassette Deck > Line Out > Roland R-05 > WAV
> SD Card > PC > CD Wave Editor (Track Split)
>  FLAC (Level 8)

01.Hands On The Clock
02.Don't Be Denied
03.Far & Near
04.Promised Land
05.Trees
06.So Sure
07.Waltz
08.Black JuJu
09.No Chance
10.She Cries Alone
11.Watch Me
12.Batman

52:15 mins

a recently aquired tape off Ebay for all those
Skeletal Family fans out there.  Listenable so
please enjoy.


Fever Ray - Olympia, Paris, France - 09.09.2010 (Flac)




Very good audience recording. Thaks to the original uploader.

----------------------------------------

Sony ECM-719 > Edirol R-09 > Sound Forge 5 > FLAC

----------------------------------------

01. Intro
02. If I had a heart
03. Triangle walks
04. Concrete walls
05. Seven
06. I'm not done
07. Mercy street
08. Now's the only time I known
09. Keep the streets empty for me
10. Dry and dusty
11. Stranger than kindness
12. When I grow up
13. Here before
14. Coconut

UNKLE - Lauren Laverne Session, Wohan House, London, UK - 07.08.2017 (MP2)



Thanks to the original uploader on Dime.

Digital Satellite (live) broadcast 2017-08-07 MPEG1 layer 2 48kHz @ 160kbps:
BBC Radio 6 Music > DVB-S > TBS 6984 > DVBviewer > .mp2 >
Mpeg2Schnitt (trimming) > .mp2. Tags added with Mp3tag.

  1. Interview
  2. Cowboys Or Indians (with Elliot Power, Ysée & Mink)
  3. Interview                            15:05
//
  4. Interview
  5. Sunrise (Always Comes Around) (with Liela Moss)
  6. Closing Comments                     13:19
Total Time : [28:25]

RE-UPLOAD: Shriekback - Peel Sessions 1982-1984 / Hatfield Polytechnic - 23.10.1984 (Flac)



I still hadn't made a proper post of this band, so these radio recordings are the perfect way to do it. Thanks to the original uploader on Dime.

Original Info File:

BBC Maida Vale Studios (John Peel Radio 1 sessions 1982-1984) FM0  (tracks 1-7)
BBC Radio 1 In Concert (Live at Hatfield Polytechnic 23rd October 1984) FM3(?)

Lineage:  BBC Radio 1 FM -> Roof Aerial -> Pioneer TX-710 Tuner -> Pioneer CT-300 Cassette Deck -> Pioneer C1 (Type II) cassette tape

Tracks 1 - 3 :-

John Peel Session #1 (BBC Radio 1)
Recorded on 26th July 1982 at
London BBC Maida Vale Studio 4
(first broadcast date: 11th August 1982)

Tracks 6 - 8 :-

John Peel Session #2 (BBC Radio 1)
Recorded on 7th March 1984 at
London BBC Maida Vale Studio 5
(first broadcast date: 15th March 1984)

Lineage:  BBC Radio 1 FM -> Roof Aerial -> Pioneer TX-710 Tuner -> Pioneer CT-300 Cassette Deck -> TDK-SA (Type II) cassette tape


Track 7 :-

John Peel Session #3 (BBC Radio 1)
Recorded on 2nd June 1985 at
London BBC Maida Vale Studio 5
(first broadcast date: 10th June 1985)
[ ** sorry my recordings of the other 2 songs in this session would appear to be lost ]

Lineage:  BBC Radio 1 FM -> Roof Aerial -> Pioneer TX-710 Tuner -> Pioneer CT-300 Cassette Deck -> TDK-SA (Type II) cassette tape


Tracks 8 - 15 :-

BBC Radio 1 'In Concert' programme
23rd September 1984
Hatfield Polytechic, England, UK

Lineage:  Source (probably either 2nd or 3rd generation FM) TDK-SA traded cassette tape


Conversion to FLAC (for all tracks) :-

Source tape -> Aiwa ADF770 Cassette Deck -> SB Extigy soundcard -> CoolEdit Pro 2.1 -> WAV -> FLAC 8 & .ffp



Setlist

 1. My Spine (Is The Bassline)
 2. All The Greek Boys Do The Handwalk
 3. Feelers
 4. Suck
 5. New Homes
 6. Under The Lights
 7. Everything That Rises Must Converge
------------------------------------------------------------------
 8. New Homes
 9. Big Sharp Teeth
10. Hand On My Heart
11. A Kind Of Fascination
12. Heath and Knowledge and Wealth and Power
13. WhiteOut
14. My Spine (Is The Bassline)
15. Mercy Dash



Note that the original setlist of the Hatfield Polytechnic BBC Radio 1 In Concert part was :-

 1. New Homes
 2. Mothloop*
 3. Big Sharp Teeth
 4. Hand On My Heart
 5. A Kind Of Fascination
 6. Heath and Knowledge and Wealth and Power
 7. Feelers*
 8. WhiteOut
 9. Suck*
10. My Spine (Is The Bassline)
11. Mercy Dash

but the tracks marked with an asterisk have been left out in order to comply with DIME requirements for officially released material to be ommitted, the marked tracks were on the extended release of the 'Nemesis' 1986 single, see here :-

http://www.cleartrails.com/shrk_d.html

RE-UPLOAD:Danielle Dax - Jakobshof, Aachen, Germany - 22.10.1987 (Flac)



Thanks to Dimenew and SpaceBandit for sharing this excellent recording on Dime.
---
from DIMENEW collection # 162
---

Rec. Info:
Vivanco EM 160 mic -> SONY WMD6 -> Mastercassette (TDK SA90) -> playback on Harman Kardon CD 491 -> Zoom H2n (at WAV 16/44) -> SD -> HD -> Audacity (edit/remaster) ->
WAV 16/44 -> TLH8 -> FLAC -> DIME -> YOUR EARS AND MIND...
This sounds superb, for the exception of the chatters here and there, epecially on the real quiet track. Voice and instruments are clear in the mix, though I had to balance the
volume on almost every track as well. Anyway, a recording that really deserves the name of a DIMENEW audience master. All thanks to the MASTERTAPER for capturing this some 25+ years ago!
---
Danielle Dax - an artist on multiple ways of music, paiting and designs. Here's a show from her days of music, maybe the year of her biggest success. The music spins round a bit of
electronic music (Gary Numan style), goth rock like Siouxsie and the banshees as well as upcoming dancefloor like Neneh Cherry. Nothing what would really scratch my mind on the surface,
but it's a nice performance, so why no giving it to you? So, here's the electronic clone to Siouxsie...Hope you like this one...SB.
---

FULL SHOW (55:57 min.)

01. Yummer-yummer man (3:58)
02. Flashback (4:51)
03. Where the flies are (4:13)
04. Funtime (3:47)
05. Up in arms (3:11)
06. Pariah (4:30)
07. Bed caves (3:20)
08. Big hollow man (5:05)
09. ... (4:09)
10. Whistling for his love (3:54)
11. Fizzing human bomb (3:41)
12. Cathouse (4:46)
13. Tower of lies (5:57)

www.danielledax.com.
Support the artist. Buy all of her merchandise.
Do not convert to lossy files, unless for personal use. No lossy tracker/blog posting!
If you sell...go to hell!

Sorry. no details about the lineup.

Uploaded to DIME by Spacebandit 2013/05/25.

Friday, 10 November 2017

The Sisters Of Mercy - Roundhouse, London, UK - 02.09.2017 (DVD & MP3)







From bootleg DVD sold outside the venue. Includes also audio only in MP3 format.Huge Thanks to Tom Riddler for sharing and doing the artwork.

Setlist:

More
Ribbons
Doctor jeeo / Detonation Blvd
Crash And Burn
Body Electric
No Time To Cry
Body And Soul
We Are The Same, Suzanne
Walk Away
Amphetamine Logic
Dominion / Mother Russia
Summer
Rumble
Flood II
Vision Thing
Something Fast
Lucretia, My Reflection
Temple Of Love
Romeo Down
That When I Reach For My Revolver
This Corrosion